当前位置:网站首页 > 影音图漫 > 影视推荐 > 正文

[电视剧] [WEB-4K] 闪耀的她 [全32集] [国语]

作者:观棋 日期:2023-06-29 21:18:51 浏览:728 分类:影视推荐


◎标  题 闪耀的她
◎译  名 她只是不想输 / 奔三那年
◎年  代 2023
◎产  地 中国大陆
◎类  别 剧情
◎语  言 汉语普通话
◎IMDb链接 https://www.imdb.com/title/tt28098871/
◎豆瓣链接 https://movie.douban.com/subject/35907887/
◎导  演 王迎 Ying Wang
◎编  剧 虞箐 Qing Yu
◎演  员 秦岚 Lan Qin
       王阳 Wayne Wang
       张萌 Alina Zhang
       刘芸 Yun Liu
       魏千翔 Qianxiang Wei
       王冠逸 Lawrence Wong
       张铎 Duo Zhang
       季晨 Chen Ji
       刘萌萌 Mengmeng Liu
       李东恒 Dongheng Li
       雷牧 Mu Lei
       蒋恺 Kai Jiang
       佟晨洁 Chenjie Tong
       王沐暄 Muxuan Wang

◎简  介
    一路在外企晋升顺遂、被誉为“难缠客户千刀斩”的管文,在33岁生日前夕遭遇职场后浪的埋坑而选择裸辞。所谓“三十三乱刀斩”,没想到重启事业之路却颇为坎坷,多方面试被破坏后只得选择了一家新开不久的商场。表面上她是从乙方跳到了甲方,实际上这家商场因为各种原因招商不顺,已冷落许久。此外,她更是遇到曾经的大学恋人、职场冷面辣手丁宁,对她诸多要求、百般挑剔。两人的共事从纠葛互怼到暧昧不清,再由破冰牵手到急转直下,情感中掺杂太多成人世界的计量,管文进退两难,亦不愿丁宁为她而过分妥协、牺牲事业,她思量再三之后还是选择自己掌握决定权。                                                                      与此同时,管文的两个闺蜜——退役运动员陈萱萱、过气女明星景知秋也各自遇到了人生中的坎儿:一个数年爱情长跑遭遇挑战,另一个婚姻状况亮起红灯。她们要如何打赢生活这场仗呢?

##### MediaInfo ######
General
Complete name                            : Stand.or.Fall.S01E11.2023.2160p.TX.WEB-DL.H265.AAC-BlackTV.mp4
Format                                   : MPEG-4
Format profile                           : Base Media
Codec ID                                 : isom (isom/iso2/mp41)
File size                                : 446 MiB
Duration                                 : 37 min 31 s
Overall bit rate mode                    : Variable
Overall bit rate                         : 1 661 kb/s
Writing application                      : Lavf59.27.100

Video
ID                                       : 1
Format                                   : HEVC
Format/Info                              : High Efficiency Video Coding
Format profile                           : [email protected]@Main
Codec ID                                 : hev1
Codec ID/Info                            : High Efficiency Video Coding
Duration                                 : 37 min 31 s
Source duration                          : 37 min 30 s
Bit rate                                 : 1 530 kb/s
Width                                    : 3 840 pixels
Height                                   : 2 160 pixels
Display aspect ratio                     : 16:9
Frame rate mode                          : Variable
Frame rate                               : 25.000 FPS
Minimum frame rate                       : 24.993 FPS
Maximum frame rate                       : 25.007 FPS
Color space                              : YUV
Chroma subsampling                       : 4:2:0
Bit depth                                : 8 bits
Bits/(Pixel*Frame)                       : 0.007
Stream size                              : 410 MiB (92%)
Source stream size                       : 410 MiB (92%)
Color range                              : Limited
Color primaries                          : BT.709
Transfer characteristics                 : BT.709
Matrix coefficients                      : BT.709
Codec configuration box                  : hvcC

Audio
ID                                       : 2
Format                                   : AAC LC
Format/Info                              : Advanced Audio Codec Low Complexity
Codec ID                                 : mp4a-40-2
Duration                                 : 37 min 31 s
Bit rate mode                            : Variable
Bit rate                                 : 125 kb/s
Maximum bit rate                         : 129 kb/s
Channel(s)                               : 2 channels
Channel layout                           : L R
Sampling rate                            : 48.0 kHz
Frame rate                               : 46.875 FPS (1024 SPF)
Compression mode                         : Lossy
Stream size                              : 33.6 MiB (8%)
Default                                  : Yes
Alternate group                          : 1


VIP专属内容
本站VIP 免费查看
开通会员
开通本站VIP可查看该内容

本资源为赞助会员资源,加入赞助会员畅享全站资源无限制下载!

升级会员时遇到问题的可以复制支付流水到后台提交工单处理!站长不定期处理工单!


您需要 登录账户 后才能发表评论

取消回复欢迎 发表评论:

请填写验证码