当前位置:网站首页 > 影音图漫 > 推荐电影 > 正文

[电视剧] [华灯初上 全三季] [全24集] [国英双语内封简繁多国软字幕] [WEB/MKV] [1080P] [TEPES] [无水印杜比网飞版]

作者:观棋日期:2022-12-01 22:51:58浏览:138分类:推荐电影

◎译  名 华灯初上 全三季 / Light The Night S01-03

◎片  名 華燈初上 全三季

◎年  代 2021-2022

◎产  地 中国台湾

◎类  别 剧情 / 爱情 / 悬疑 / 犯罪

◎语  言 汉语普通话

◎上映日期 2021-11-26(中国台湾)[第一季]

◎IMDb评分 7.5/10 from 699 users

◎IMDb链接 https://www.imdb.com/title/tt15808044

◎豆瓣评分 8.1/10 from 83141 users

◎豆瓣链接 https://movie.douban.com/subject/34607516

◎集  数 24

◎片  长 46分钟

◎导  演 连奕琦 Yi-chi Lien

◎编  剧 杜政哲 Ryan Tu / 洪立妍 Liyan Hong / 林绍谦 Jaxton Lin

◎主  演 林心如 Ruby Lin

      杨谨华 Chin Hua Yang

      杨祐宁 Yo Yang

      凤小岳 Rhydian Vaughan

      张轩睿 Xuanrui Zhang

      刘品言 Esther Liu

      谢琼煖 Chiung-Hsuan Hsieh

      谢欣颖 Nikki Hsin-Ying Hsieh

      郭雪芙 Puff Kuo

      江宜蓉 Cammy Chiang

      胡玮杰 Wei-Jie Hu

      章广辰 Kuang-Chen Chang

      谢雨芝 Yu-Chih Hsieh

      刘敬 Jim liu

      霍建华 Wallace Huo

      郑元畅 Joseph Cheng

      王柏杰 Bo-Chieh Wang

      修杰楷 Chieh-Kai Hsiu

      李李仁 Liren Li

      加贺美智久 kagami tomohisa

      屈中恒 Chung-heng Chu

      林暐恒 Ken Lin

      任容萱 Lorene Ren

      许光汉 Greg Hsu

      沈孟生 Meng-sheng Shen

      王月 Moon Wang

      温升豪 James Wen

      蔡君茹 June Tsai

      马念先 Nien-Hsien Ma

      海裕芬 Heaven Hai

      钟承翰 Hans Chung

      陈博正 Bor Jing Chan

      范瑞君 Ray Rui-chun Fan

      林哲熹 JC Lin

      宋柏纬 Edison Song

      应采灵 Tsai-Ling Ying

      北村丰晴 Toyo Kitamura

      郭文颐 Berry Wen-i Kuo

      吴昆达 Kun-Da Wu

      林柏宏 Austin Lin

      王渝萱 Yu-Xuan Wang

      林禹

      朱宥丞 Edward Chu


◎简  介


  罗雨侬(林心如 饰)和苏庆仪(杨谨华 饰)的故事在她们还是女孩的时候就已经开始了。生长背景与个性天差地别的两人,命运却将她们紧紧绑在一起 她们合力顶下一间在林森北路条通的酒店“光”。 原本以为这家店将会承载她们人生最华美的灿烂时光,无奈一个叫江瀚的男子出现,打乱了她们原本的生命轨迹 。

Video
ID : 1
Format : AVC
Format/Info : Advanced Video Codec
Format profile : [email protected]
Format settings : CABAC / 4 Ref Frames
Format settings, CABAC : Yes
Format settings, Reference frames : 4 frames
Codec ID : V_MPEG4/ISO/AVC
Duration : 50 min 27 s
Bit rate mode : Variable
Bit rate : 5 297 kb/s
Maximum bit rate : 20.0 Mb/s
Width : 1 920 pixels
Height : 1 080 pixels
Display aspect ratio : 16:9
Frame rate mode : Constant
Frame rate : 29.970 (30000/1001) FPS
Color space : YUV
Chroma subsampling : 4:2:0
Bit depth : 8 bits
Scan type : Progressive
Bits/(Pixel*Frame) : 0.085
Stream size : 1.87 GiB (80%)
Writing library : x264 core 148 r2727 7d026e8
Encoding settings : cabac=1 / ref=4 / deblock=1:0:0 / analyse=0x3:0x111 / me=umh / subme=10 / psy=1 / psy_rd=1.00:0.00 / mixed_ref=1 / me_range=120 / chroma_me=1 / trellis=2 / 8x8dct=1 / cqm=0 / deadzone=21,11 / fast_pskip=1 / chroma_qp_offset=-2 / threads=8 / lookahead_threads=2 / sliced_threads=0 / nr=0 / decimate=1 / interlaced=0 / bluray_compat=0 / stitchable=1 / constrained_intra=0 / bframes=16 / b_pyramid=2 / b_adapt=2 / b_bias=0 / direct=3 / weightb=1 / open_gop=0 / weightp=2 / keyint=300 / keyint_min=151 / scenecut=0 / intra_refresh=0 / rc_lookahead=250 / rc=crf / mbtree=1 / crf=16.0 / qcomp=0.50 / qpmin=6 / qpmax=51 / qpstep=4 / vbv_maxrate=20000 / vbv_bufsize=25000 / crf_max=0.0 / nal_hrd=vbr / filler=0 / ip_ratio=1.40 / aq=1:0.80
Default : Yes
Forced : No

Audio #1
ID : 2
Format : E-AC-3
Format/Info : Enhanced AC-3
Commercial name : Dolby Digital Plus
Codec ID : A_EAC3
Duration : 50 min 29 s
Bit rate mode : Constant
Bit rate : 640 kb/s
Channel(s) : 6 channels
Channel layout : L R C LFE Ls Rs
Sampling rate : 48.0 kHz
Frame rate : 31.250 FPS (1536 SPF)
Compression mode : Lossy
Stream size : 231 MiB (10%)
Language : Chinese
Service kind : Complete Main
Default : Yes
Forced : No

Audio #2
ID : 3
Format : E-AC-3
Format/Info : Enhanced AC-3
Commercial name : Dolby Digital Plus
Codec ID : A_EAC3
Duration : 50 min 29 s
Bit rate mode : Constant
Bit rate : 640 kb/s
Channel(s) : 6 channels
Channel layout : L R C LFE Ls Rs
Sampling rate : 48.0 kHz
Frame rate : 31.250 FPS (1536 SPF)
Compression mode : Lossy
Stream size : 231 MiB (10%)
Language : English
Service kind : Complete Main
Default : No
Forced : No

Text #1
ID : 4
Format : UTF-8
Codec ID : S_TEXT/UTF8
Codec ID/Info : UTF-8 Plain Text
Duration : 48 min 49 s
Bit rate : 1 b/s
Count of elements : 22
Stream size : 536 Bytes (0%)
Title : Traditional (Forced)
Language : Chinese
Default : Yes
Forced : Yes

Text #2
ID : 5
Format : UTF-8
Codec ID : S_TEXT/UTF8
Codec ID/Info : UTF-8 Plain Text
Duration : 49 min 49 s
Bit rate : 1 b/s
Count of elements : 22
Stream size : 487 Bytes (0%)
Title : Forced
Language : English
Default : No
Forced : No

Text #3
ID : 6
Format : UTF-8
Codec ID : S_TEXT/UTF8
Codec ID/Info : UTF-8 Plain Text
Duration : 46 min 45 s
Bit rate : 44 b/s
Count of elements : 623
Stream size : 15.4 KiB (0%)
Title : Traditional
Language : Chinese
Default : No
Forced : No

Text #4

......

Text #36
ID : 39
Format : UTF-8
Codec ID : S_TEXT/UTF8
Codec ID/Info : UTF-8 Plain Text
Duration : 49 min 35 s
Bit rate : 43 b/s
Count of elements : 636
Stream size : 15.7 KiB (0%)
Title : Simplified
Language : Chinese
Default : No
Forced : No

Menu
00:02:08.545 : en:Intro
00:03:36.699 : en:Intro End
00:47:21.000 : en:Credits


本人发布的种子请使用专业BT下载工具:

UT,Bitcomet,qBittorrent,Xdown开启上传后再下载!!!

使用迅雷或网盘离线可能会没速度!!!


登录访问
本站用户 免费查看
登录账号

抱歉您目前未登录!此为赞助会员资源,加入赞助会员畅享全站资源无限制下载!本站已撤销月费跟年费权限!

升级会员时遇到问题的可以复制支付流水到后台提交工单处理!站长不定期处理工单!

请下载完成的朋友自觉做种一段时间,小水管出种不易,且下且珍惜,谢谢!!!


解压请使用官方原版WinRAR或者360压缩,使用破解版或者好压等软件可能会出错,感谢所有赞赏的朋友!!!


暂无评论,来添加一个吧。

您需要 登录账户 后才能发表评论

取消回复欢迎 发表评论:

请填写验证码